Loading...
Error
 

Скачать торрент Программист-карьерист. Видеокурс [Андрей Жариков] (2015, Программирование, PCRec) R.G. Мастер-Класс

 
Автор Сообщение

Music Listener

post 16-Июн-15 18:05

Программист-карьерист


pic
  • Год выпуска: 2015
  • Страна: Россия
  • Тематика: Программирование
  • Тип материала: Обучающее видео
  • Продолжительность: 10:56:19
  • Автор: Андрей Жариков
  • Язык: Русский
  • Описание:
    Курс содержит ряд уроков, которые помогут вам быстрее построить карьеру.

    Чему Вы научитесь
    • Стратегии офисной карьеры;
    • Стратегии успешного фриланса;
    • Способам достижения бОльших результатов;
    • Секретам самореализации;
    • Повышению эффективности работы


    Программа курса:
    Урок 1. Карьера в офисе
    • Как новичку устроиться на работу;
    • Как отбирать интересные вакансии;
    • Как готовиться к собеседованиям;
    • Как идти на повышение зарплаты

    Урок 2. Карьера фрилансера
    • Как и где найти первые заказы;
    • Как общаться с заказчиками и принимать оплату;
    • Как наработать портфолио и отзывы;
    • Какие личные качества необходимо прокачать;
    • Как решить юридические вопросы

    Урок 3. Результаты чужими руками
    • Как писать меньше кода с лучшим результатом; Как пользоваться готовыми наработками;
    • Как пользоваться вспомогательными сервисами;
    • Как этично пользоваться чужим трудом

    Урок 4. Методологии ведения проектов
    • Обзор популярных методологий;
    • Waterfall: корпоративная классика;
    • Agile: современные гибкие подходы;
    • Scrum: для небольших команд;
    • Kanbab: восточная мудрость

    Урок 5. Мотивация и самомотивация
    • Формула мотивации; Квадрант мотивированности;
    • Что такое лень и что с ней делать;
    • Как работать продуктивнее


  • Качество: PCRec
  • Формат: MP4
  • Видео кодек: AVC
  • Аудио кодек: AAC
  • Видео: avc1, 1024x768, ~909 Kbps, ~12 fps
  • Аудио: AAC, 44.1 KHz, 2 ch stereo, 96 Kbps



MI

Код:

Общее
Полное имя : D:\Загрузки\Geekbrains — Программист-карьерист\Урок 1. Карьера в офисе\1_1.mp4
Формат : MPEG-4
Профиль формата : Base Media / Version 2
Идентификатор кодека : mp42
Размер файла : 343 Мбайт
Продолжительность : 47 м.
Режим общего битрейта : Переменный
Общий поток : 1007 Кбит/сек
Дата кодирования : UTC 2014-04-12 17:11:45
Дата пометки : UTC 2014-04-12 17:23:32

Видео
Идентификатор : 1
Формат : AVC
Формат/Информация : Advanced Video Codec
Профиль формата : [email protected]
Параметр CABAC формата : Да
Параметр ReFrames формата : 5 кадров
Идентификатор кодека : avc1
Идентификатор кодека/Информация : Advanced Video Coding
Продолжительность : 47 м.
Битрейт : 909 Кбит/сек
Ширина : 1024 пикселя
Высота : 768 пикселей
Соотношение сторон : 4:3
Режим частоты кадров : Постоянный
Частота кадров : 12,000 кадров/сек
Цветовое пространство : YUV
Субдискретизация насыщенности : 4:2:0
Битовая глубина : 8 бит
Тип развёртки : Прогрессивная
Бит/(Пиксели*Кадры) : 0.096
Размер потока : 310 Мбайт (90%)
Дата кодирования : UTC 2014-04-12 17:11:45
Дата пометки : UTC 2014-04-12 17:23:31
Основные цвета : BT.709
Характеристики трансфера : BT.709
Коэффициенты матрицы : BT.709

Аудио
Идентификатор : 2
Формат : AAC
Формат/Информация : Advanced Audio Codec
Профиль формата : LC
Идентификатор кодека : 40
Продолжительность : 47 м.
Вид битрейта : Переменный
Битрейт : 96,0 Кбит/сек
Максимальный битрейт : 108 Кбит/сек
Каналы : 2 канала
Расположение каналов : Front: L R
Частота : 44,1 КГц
Метод сжатия : С потерями
Размер потока : 32,3 Мбайт (9%)
Дата кодирования : UTC 2014-04-12 17:11:45
Дата пометки : UTC 2014-04-12 17:13:29

Скриншоты
          [thumb][/thumb]  
pic

[rustorka.com]Программист-карьерист (2015).torrent
Трекер: Зарегистрирован

magnet ссылка

 


Скачать .torrent

24 KB

Статус: проверено (by Music Listener в 16-Июн-15 18:22)
Зарегистрирован: 16-Июн-15 18:05
Скачан: 145 раз
Размер: 4.55 GB | 
Поблагодарили:
Скачать Программист-карьерист. Видеокурс [Андрей Жариков] (2015, Программирование, PCRec) R.G. Мастер-Класс торрент
 


Похожие раздачи

VanZan

post 16-Июн-15 19:56 (спустя 1 час 50 минут)

• Что такое лень и что с ней делать
то что мне надо )

Music Listener

post 16-Июн-15 21:40 (спустя 1 час 44 минуты)

Каждому своё 8)

Текущее время: 30-Ноя 21:11

Часовой пояс: GMT + 3



Вы не можете начинать темы
Вы не можете отвечать на сообщения
Вы не можете редактировать свои сообщения
Вы не можете удалять свои сообщения
Вы не можете голосовать в опросах
Вы не можете прикреплять файлы к сообщениям
Вы не можете скачивать файлы